[MV下载] 周杰伦 - 《地表最强世界巡回演唱会》蓝光 Blu-ray 1080p 下载

[复制链接]
查看731 | 回复2 | 2020.3.29 18:05 | 显示全部楼层 |阅读模式
周杰伦 - 《地表最强世界巡回演唱会》蓝光 Blu-ray 1080p 下载
周杰伦2016地表最强世界巡回演唱会,蓝光版,1080P,BDRIP,BLU-RAY,MKV



  周杰伦地表最强世界巡回演唱会是中国台湾歌手周杰伦自2016年6月30日起在全球范围内举办的新一轮世界巡回演唱会,由巨室音乐/巨炮娱乐/杰威尔音乐有限公司主办。本次演唱会精选周杰伦历年的经典歌曲,与周杰伦一起,遨游在太空,享受音乐的盛宴。


蓝光BD版,大概20个G,画质1080P,比特率是24000,两个音轨,一个立体声一个5.1环绕声,具体信息放3楼

百度网盘下载

地表最强百度网盘.txt (286 Bytes, 下载次数: 9, 售价: 5 铜纳特)


上一篇:张学友 - 等风雨经过 1080P
下一篇:周杰伦 袁咏琳 - 《画沙》
LOADREAM
admin | 2020.3.29 18:05 | 显示全部楼层
周杰倫

「地表最強THE INVINCIBLE」演唱會

DVD、BD 精裝鐵盒版

連太空人也迫不及待!回到地表,飛上太空遁入海底!

演出成本突破1.6億 科技+幻想對衝擊4D感官

從出道開始的一套演唱會,到第七套【地表強】演唱會,周杰倫就不斷創下新紀錄、不斷開發新創意、不斷越歷史、創造歷史,『周』而復始,地表強!

堅持著屌的原則,周杰倫帶來他新一套世界巡迴演唱會「地表強」!在演唱會前導海報中,悠遊在浩瀚宇宙中的太空人手持演唱會門票,打算搭乘太空梭返回地球,連太空人都迫不及待要回到地球,只為看這場一票難求的周杰倫演唱會!海報視覺預告了周杰倫此次演唱會的太空科技元素,【地表強】演唱會將視頻的「真實」、場景的「華麗」、道具場面的「誇張」,完美三合一,創造出地球有以來令人期待的一場演唱會,如果只選一場演唱會,當然要地表強!

演出成本突破1.6億 建構所不能的4D空間

演出成本突破1.6億,創周董演唱會成本的高!每一秒鐘都是科技的呈現與高成本的投入,以及幕前幕後精準的設計與排練所堆砌出來的緻演出!演唱會中,將運用高科技帶領大家進行一場太空中的音樂漫遊!但是周董要給歌迷的不僅僅於此,這場「地表強」演唱會,不但上了太空,還到了海底世界,和美人魚美麗相遇!上山下海,建構所不能的4D空間!將歌迷的想像空間達到致,刷新所有看過的演唱會感官體驗!

出道將近17年的周杰倫,希望藉著這場演唱會,送給與他一起成長、一直支持他的歌迷朋友,所以同時也是一場感謝歌迷的盛宴!希望歌迷在這場盛宴當中,獲得所未有的滿足!也讓歌迷知道,周杰倫以粉絲為榮,粉絲也以周杰倫為榮!一起創造「地表強」的演出與紀錄!

演唱會概念
用音樂尋找一片淨土
太空戰士,用音樂出發

「用音樂找尋的一片凈土,周杰倫化身太空戰士,用音樂出發。」「地表強」演唱會,以此為概念,運用太空人在音樂的引領之下,穿梭在各種音樂時空之中,將音樂會、演唱會、舞台劇結合並完美呈現。
開場以外太空為主場景,太空人漫無目的地漂浮在太空中,周杰倫以「太空戰士」形象出場,太空人受到太空戰士的音樂引力強烈吸引,穿過時空隧道回到地表!

因為他的音樂,描繪出天馬行空的舞台與視覺
上千片移動式LED建構超乎想像、結合各種風格時空

此次演唱會以上千片的移動式LED,表現多層次的舞台設計,隨著演出做不同效果的變化,創造出太空、中古世紀吸血鬼森林、深海、復古魔幻時空、霓虹百老匯…等華麗而多變時空,來呈現演唱會每個段落不同的音樂風格。

酷炫科技太空:盔甲造型LED的太空艙外層,後方大圓艙門,太空人騰空漫步,一開場就帶領大家進入科幻太空世界。

中古世紀吸血鬼森林:以巴洛克風十字架墓碑 /哥德式高塔/骷髏王座/穿梭森林的鬼魂;引領觀眾進入一個「哥德嘻哈風」音樂世界。

神秘浪漫深海:高低層次錯落的LED,製作出深海的浩瀚與景深,創造出深海的抒情音樂空間。

純愛書店:以獨幕劇開始,翻開一頁,打開了半島鐵盒裡,那些不能說的秘密。

復古魔幻百老匯:以卓別林闖入零零七的黑白時空拉開序幕,進入屬於周杰倫的魔幻時空系列。超大法國號造型鋼琴、霓虹交織而成的百老匯世界。

古埃及華麗嘻哈時空:以古埃及金碧輝煌融合華麗嘻哈元素,創造出屬於周杰倫式的嘻哈舞台。

香港造型大師Tomas 以「角色」元素為周杰倫設計服裝
MOSCHINO歐洲總部設計師Jeremy Scott

特製4套舞台服

周杰倫第七次大型巡迴演唱會,整套節目總計有9套服裝造型,有7套來自香港造型大師Tomas之手!2套來自MOSCHINO為周杰倫量身打造的服裝!Tomas因為周董成功跨足演員身分的關係,在服裝設計上多了一個「角色」的元素,像開場的「電幻戰士裝」,彷彿率領千軍萬馬,一出現就震懾全場。
此外,MOSCHINO歐洲總部設計師Jeremy Scott為周杰倫此套演唱會總共設計了4套服裝,在每場演出中輪番亮相2套,有「來自外星的鬼才設計師」之稱的Jeremy Scott,服裝風格怪奇強烈、前衛時尚,賦予周杰倫有別以往的視覺風格,也讓粉絲眼睛為之一亮。

節目巧思無處不在

更將歌迷一起設計進節目中!

「地表強」的演出,無論大至舞台、燈光、大型裝置、多媒體視訊等均講究從音樂出發的完整視聽感,更在許多細節中加入巧思與要求;舞蹈的呈現、特製的雙截棍、光劍、LED服裝;這次在音樂演出中除了一般的演唱會搖滾樂隊配置之外,更加入大編制管樂與人聲多部合唱,讓音樂層次與畫面更豐富!更無預警的將所有現場歌迷「設計」進節目橋段中,敬請期待這個充滿驚奇的part,也你就是其中一個幸運者!
LOADREAM
admin | 2020.3.29 18:09 | 显示全部楼层
General
Unique ID                      : 304045924501277228312959946981533653056 (0xE4BD1D73B1821A69EA732B721AE59840)
Complete name                  : E:\周杰伦MV合集\周杰伦演唱会\The Invincible Tour Jay Chou.mkv
Format                         : Matroska
Format version                 : Version 4
File size                      : 19.6 GiB
Duration                       : 1 h 44 min
Overall bit rate mode          : Variable
Overall bit rate               : 26.9 Mb/s
Encoded date                   : UTC 2019-11-14 16:46:06
Writing application            : mkvmerge v40.0.0 ('Old Town Road + Pony') 32-bit
Writing library                : libebml v1.3.9 + libmatroska v1.5.2

Video
ID                             : 1
Format                         : AVC
Format/Info                    : Advanced Video Codec
Format profile                 : High@L4.1
Format settings                : CABAC / 2 Ref Frames
Format settings, CABAC         : Yes
Format settings, Reference fra : 2 frames
Codec ID                       : V_MPEG4/ISO/AVC
Duration                       : 1 h 44 min
Bit rate mode                  : Variable
Bit rate                       : 24.0 Mb/s
Width                          : 1 920 pixels
Height                         : 1 080 pixels
Display aspect ratio           : 16:9
Frame rate mode                : Variable
Frame rate                     : 59.940 (59940/1000) FPS
Original frame rate            : 29.970 (30000/1001) FPS
Color space                    : YUV
Chroma subsampling             : 4:2:0
Bit depth                      : 8 bits
Scan type                      : Interlaced
Scan type, store method        : Separated fields
Scan order                     : Top Field First
Bits/(Pixel*Frame)             : 0.193
Stream size                    : 17.5 GiB (89%)
Default                        : Yes
Forced                         : No

Audio #1
ID                             : 2
Format                         : PCM
Format settings                : Little / Signed
Codec ID                       : A_PCM/INT/LIT
Duration                       : 1 h 44 min
Bit rate mode                  : Constant
Bit rate                       : 2 304 kb/s
Channel(s)                     : 2 channels
Sampling rate                  : 48.0 kHz
Frame rate                     : 200.000 FPS (240 SPF)
Bit depth                      : 24 bits
Stream size                    : 1.68 GiB (9%)
Language                       : Chinese
Default                        : Yes
Forced                         : No

Audio #2
ID                             : 3
Format                         : AC-3
Format/Info                    : Audio Coding 3
Commercial name                : Dolby Digital
Codec ID                       : A_AC3
Duration                       : 1 h 44 min
Bit rate mode                  : Constant
Bit rate                       : 640 kb/s
Channel(s)                     : 6 channels
Channel layout                 : L R C LFE Ls Rs
Sampling rate                  : 48.0 kHz
Frame rate                     : 31.250 FPS (1536 SPF)
Compression mode               : Lossy
Stream size                    : 478 MiB (2%)
Language                       : Chinese
Service kind                   : Complete Main
Default                        : No
Forced                         : No

Text
ID                             : 4
Format                         : PGS
Muxing mode                    : zlib
Codec ID                       : S_HDMV/PGS
Codec ID/Info                  : Picture based subtitle format used on BDs/HD-DVDs
Duration                       : 1 h 36 min
Bit rate                       : 26.0 kb/s
Count of elements              : 1798
Stream size                    : 18.1 MiB (0%)
Language                       : Chinese
Default                        : Yes
Forced                         : No

Menu
00:00:00.000                   : en:第 01 章
00:08:24.036                   : en:第 02 章
00:10:50.349                   : en:第 03 章
00:15:24.390                   : en:第 04 章
00:21:29.021                   : en:第 05 章
00:24:29.234                   : en:第 06 章
00:25:12.177                   : en:第 07 章
00:28:56.434                   : en:第 08 章
00:35:09.107                   : en:第 09 章
00:38:40.851                   : en:第 10 章
00:45:13.444                   : en:第 11 章
00:49:23.393                   : en:第 12 章
00:52:55.972                   : en:第 13 章
00:56:54.411                   : en:第 14 章
00:59:10.013                   : en:第 15 章
01:01:09.032                   : en:第 16 章
01:03:07.583                   : en:第 17 章
01:06:30.653                   : en:第 18 章
01:10:59.021                   : en:第 19 章
01:14:27.362                   : en:第 20 章
01:16:10.065                   : en:第 21 章
01:18:15.357                   : en:第 22 章
01:21:30.785                   : en:第 23 章
01:24:19.254                   : en:第 24 章
01:28:42.750                   : en:第 25 章
01:33:09.817                   : en:第 26 章
01:38:22.263                   : en:第 27 章

LOADREAM
您需要登录后才可以回帖 登录 | 注册账号

本版积分规则